Panel logowania
Login:
Hasło:
Nie pamiętasz hasła?
Shoutbox dostępny tylko dla osób zarejestrowanych.

Prawo Zemsty / Law Abiding Citizen 2009 PL BRRip XviD-BTGIGS

Autor: p4tereczka
Kategoria: Filmy
  • 0
Prawo Zemsty / Law Abiding Citizen 2009 PL BRRip XviD-BTGIGS

Prawo Zemsty / Law Abiding Citizen 2009 PL BRRip XviD-BTGIGS

Prawo Zemsty / Law Abiding Citizen 2009 PL BRRip XviD-BTGIGS

#INFO/NFO#


Historia robiącego karierę asystenta Prokuratora Generalnego, który spotyka na swojej drodze skrzywdzonego przez system prawniczy strażnika więziennego. Okazuje się bowiem, że morderca żony i córki strażnika, dzięki prawniczym przepisom, trafi na wolność. Strażnik postanawia więc wziąć prawo w swoje ręce i zemścić się nie tylko na zbrodniarzu, ale także na tych, którzy doprowadzili do jego uwolnienia.


Tagi: Prawo, Zemsty, Law, Abiding, Citizen, 2009, PL, BRRip, XviD, BTGIGS
Komentarze: 0
31-03-2010, 18:01
Wyświetleń: 229

Prawo zemsty / Law Abiding Citizen [2009.480p.UNRATED.BRRip.XviD.AC3-WHiiZz]

Autor: p4tereczka
Kategoria: Filmy
  • 17
Prawo zemsty / Law Abiding Citizen [2009.480p.UNRATED.BRRip.XviD.AC3-WHiiZz]

Prawo zemsty / Law Abiding Citizen [2009.480p.UNRATED.BRRip.XviD.AC3-WHiiZz]

#INFO/NFO#

Historia robiącego karierę asystenta Prokuratora Generalnego, który spotyka na swojej drodze skrzywdzonego przez system prawniczy strażnika więziennego. Okazuje się bowiem, że morderca żony i córki strażnika, dzięki prawniczym przepisom, trafi na wolność. Strażnik postanawia więc wziąć prawo w swoje ręce i zemścić się nie tylko na zbrodniarzu, ale także na tych, którzy doprowadzili do jego uwolnienia.


Tagi: Prawo, zemsty, Law, Abiding, Citizen, 2009, 480p, UNRATED, BRRip, XviD, AC3, WHiiZz
Komentarze: 0
18-01-2010, 11:24
Wyświetleń: 290

Prawo zemsty / Law Abiding Citizen 2009 R5 LiNE-XviD[FUSiON]

Autor: seXi
Kategoria: Filmy
  • 85
Prawo zemsty / Law Abiding Citizen 2009 R5 LiNE-XviD[FUSiON]
Prawo zemsty / Law Abiding Citizen 2009 R5 LiNE-XviD[FUSiON]

Info

Produkcja: USA
Gatunek: Dramat, Kryminał, Thriller
Data premiery: 2009-11-27 (Polska) , 2009-09-23 (Świat)



Tagi: Prawo, zemsty, Law, Abiding, Citizen, 2009, R5, LiNE, XviDFUSiON
Komentarze: 0
3-12-2009, 00:16
Wyświetleń: 505

Prawo Zemsty / Law Abiding Citizen (2009) LiNE R5-DEViSE x264

Kategoria: Filmy
  • 85
Prawo Zemsty  / Law Abiding Citizen (2009) LiNE R5-DEViSE x264


Clyde Shelton (Gerard Butler) jest przykładnym mężem i ojcem oraz uczciwym człowiekiem, którego żona i córka zostają brutalnie zamordowane podczas włamania do ich domu. Kiedy zabójcy zostają schwytani, sprawę dostaje głodny sukcesu prokurator z Filadelfii, Nick Rice (Jamie Foxx). Nick proponuje jednemu z podejrzanych złagodzenie wyroku w zamian za zeznania przeciwko wspólnikowi.
Mija dziesięć lat. Człowiek, który uniknął kary za morderstwo zostaje znaleziony martwy, a do winy bez wahania przyznaje się Clyde Shelton. Po czym bez ogródek uprzedza Nicka: albo ten naprawi błąd w systemie sprawiedliwości, przez który ucierpiała jego rodzina albo kluczowe osoby związane z tamtym procesem zginą.
Niebawem Shelton zaczyna spełniać swoje groźby, aranżując zza krat więzienia serię wyjątkowo szatańskich zabójstw, których nie da się przewidzieć ani powstrzymać. Na Filadelfię pada strach, kiedy znane osobistości, jedna po drugiej giną z polecenia Sheltona, a władze są bezradne wobec jego bezwzględnych poczynań.
Kolejnym ofiarom zapobiec może jedynie Nick, lecz w tym celu będzie musiał przechytrzyć błyskotliwego socjopatę w makabrycznym pojedynku umysłów, w którym nawet najdrobniejszy błąd oznacza śmierć. Zdając sobie sprawę, że na muszce Sheltona znalazła się teraz jego własna rodzina, Nick zaczyna rozpaczliwy wyścig z czasem, stając do walki ze śmiertelnie niebezpiecznym przeciwnikiem, który zawsze zdaje się wyprzedzać go o krok.

Jamie Foxx: Nick Rice
Gerard Butler: Clyde Shelton
Leslie Bibb: Sarah Lowell
Bruce McGill: Jonas Cantrell
Colm Meaney: Detektyw Dunnigan
Viola Davis: Burmistrz Filadelfii
Josh Stewart: Rupert Ames
Richard Portnow: Bill Reynolds
Michael Irby: Detektyw Garza
Christian Stolte: Clarence Darby
Emerald-Angel Young: Denise Rice
Brooke Stacy Mills: Żona Clyde'a
Dan Bittner: Sereno
Evan Hart: Collins
Regina Hall: Kelly Rice

DANE TECHNICZNE:
Plik:
Format : AVI
Format/Info : Audio Video Interleave
File size : 470 MiB
Duration : 1h 44mn
Overall bit rate : 630 Kbps
Writing application : MediaCoder 0.6

Video:
Format : h264
Codec ID : h264
Duration : 1h 44mn
Bit rate : 490 Kbps
Width : 720 pixels
Height : 294 pixels
Display aspect ratio : 2.449
Frame rate : 25.000 fps
Resolution : 24 bits
Bits/(Pixel*Frame) : 0.093
Stream size : 365 MiB (78%)

Audio:
Format : MPEG Audio
Format version : Version 1
Format profile : Layer 3
Codec ID : 55
Codec ID/Hint : MP3
Duration : 1h 44mn
Bit rate mode : Constant
Bit rate : 128 Kbps
Channel(s) : 2 channels
Sampling rate : 44.1 KHz
Resolution : 16 bits
Stream size : 95.3 MiB (20%)
Alignment : Aligned on interleaves
Interleave, duration : 26 ms (0.65 video frame)
Interleave, preload duration : 522 ms


Tagi: Prawo, Zemsty, , Law, Abiding, Citizen, 2009, LiNE, R5, DEViSE, x264
Komentarze: 1
2-12-2009, 18:36
Wyświetleń: 257

Prawo zemsty / Law Abiding Citizen TS XVID-IMAGiNE

Autor: p4tereczka
Kategoria: Filmy
  • 51
Prawo zemsty / Law Abiding Citizen TS XVID-IMAGiNE

Prawo zemsty /  Law Abiding Citizen TS XVID-IMAGiNE

Historia robiącego karierę asystenta Prokuratora Generalnego, który spotyka na swojej drodze skrzywdzonego przez system prawniczy strażnika więziennego. Okazuje się bowiem, że morderca żony i córki strażnika, dzięki prawniczym przepisom, trafi na wolność. Strażnik postanawia więc wziąć prawo w swoje ręce i zemścić się nie tylko na zbrodniarzu, ale także na tych, którzy doprowadzili do jego uwolnienia.


Tagi: Prawo, zemsty, , Law, Abiding, Citizen, TS, XVID, IMAGiNE
Komentarze: 0
20-10-2009, 23:11
Wyświetleń: 274

Reklama / Advertisement










Najlepsze / Best
Komentarze / Comments
Statystyki / Statistics


Online: 17
Polecane /Recommended
Linki / Links
Sponsorowane
Reklama / Advertisement