Panel logowania
Login:
Hasło:
Nie pamiętasz hasła?

Transformers 3 Dark of the Moon 2011 Cam Rip XviD - DJ

Autor: tanya-j
1-07-2011, 18:56
Transformers 3 Dark of the Moon 2011 Cam Rip XviD - DJ

Transformers 3 Dark of the Moon 2011 Cam Rip XviD - DJ | 1.24 GiB

The Autobots learn of a Cybertronian spacecraft hidden on the Moon, and race against the Decepticons to reach it and to learn its secrets

Genre: Action | Adventure | Sci-Fi | Director: Michael Bay | IMDB
Starring: Shia LaBeouf, Rosie Huntington-Whiteley and Tyrese Gibson

Format : AVI
Format/Info : Audio Video Interleave
Format profile : OpenDML
File size : 1.24 GiB
Duration : 1h 58mn
Overall bit rate : 1 508 Kbps
Writing application : Lavf52.39.1

Video
ID : 0
Format : xvid
Codec ID : xvid
Duration : 1h 58mn
Bit rate : 53.2 Kbps
Width : 620 pixels
Height : 270 pixels
Display aspect ratio : 2.25:1
Frame rate : 25.000 fps
Bits/(Pixel*Frame) : 0.013
Stream size : 44.9 MiB (4%)

Audio
ID : 1
Format : MPEG Audio
Codec ID : 55
Codec ID/Hint : MP3
Duration : 1h 58mn
Bit rate : 64.0 Kbps
Channel(s) : 2 channels
Sampling rate : 44.1 KHz
Compression mode : Lossy
Stream size : 54.0 MiB (4%)
Alignment : Aligned on interleaves

Aby zobaczyć ukryty tekst musisz być zalogowany, jeżeli nie masz konta zarejestruj się!


Ilość komentarzy: (0)
  • 0
 (Głosów #: 0)

Informacja

Użytkownicy z rangą Gość nie mogą dodawać komentarzy.

Reklama / Advertisement










Najlepsze / Best
Komentarze / Comments
Statystyki / Statistics


Online: 29
Polecane /Recommended
Linki / Links
Sponsorowane
Reklama / Advertisement